<?xml version="1.0" standalone="no"?>
<!DOCTYPE svg PUBLIC "-//W3C//DTD SVG 1.1//EN" "http://www.w3.org/Graphics/SVG/1.1/DTD/svg11.dtd" >
<svg xmlns="http://www.w3.org/2000/svg">
<metadata>Generated by IcoMoon</metadata>
<defs>
<font id="icomoon" horiz-adv-x="1024">
<font-face units-per-em="1024" ascent="960" descent="-64" />
<missing-glyph horiz-adv-x="1024" />
<glyph unicode="&#x20;" horiz-adv-x="512" d="" />
<glyph unicode="&#xe900;" glyph-name="check-covid-19-flu-heat-scan-temperature-thermometer" d="M464 531.856c-29.904 0-58.032 11.664-79.184 32.832l22.624 22.624c15.12-15.12 35.216-23.456 56.56-23.456s41.44 8.336 56.56 23.456l22.624-22.624c-21.152-21.168-49.28-32.832-79.184-32.832zM806.128 544h-49.552l11.424-80h55.264zM704 704v-128h128l48-224h112v240l-80 112zM676.685 811.314l64.001 64.001 22.627-22.627-64.001-64.001-22.627 22.627zM714.051 766.905l80.008 31.974 11.875-29.715-80.008-31.974-11.875 29.715zM864 192c-61.856 0-112-50.144-112-112s50.144-112 112-112 112 50.144 112 112c0 61.856-50.144 112-112 112zM848 25.376l-43.312 43.312 22.624 22.624 20.688-20.688 68.688 68.688 22.624-22.624-91.312-91.312zM912 304h32v-32h-32v32zM912 240h32v-32h-32v32zM672 96h32v-32h-32v32zM608 96h32v-32h-32v32zM544 96h32v-32h-32v32zM480 96h32v-32h-32v32zM416 96h32v-32h-32v32zM608 640c0 50.704-13.2 98.288-36.208 139.664 58.72 23.696 100.208 81.12 100.208 148.336h-352c-159.056 0-288-128.944-288-288v-208l32-224v-240h304v208h224v256h96l-80 208zM560 464v-144h-48c-17.648 0-32 14.352-32 32h-32c0-35.296 28.704-64 64-64h48v-80h-224v-208h-240v210.272l-31.68 221.744c70.544 0.176 127.68 57.408 127.68 127.984-35.344 0-64 28.656-64 64s28.656 64 64 64v80h320c9.504 0 18.752 0.992 27.792 2.576 22.832-38.288 36.208-82.848 36.208-130.576v-5.952l65.408-170.048h-81.408z" />
<glyph unicode="&#xe901;" glyph-name="communication-engagement-human-infection-transfer-transmission-viral" d="M272 640c0 44.192-35.808 80-80 80s-80-35.808-80-80c0-44.192 35.808-80 80-80s80 35.808 80 80v0zM272 560h-160c-35.344 0-64-28.656-64-64v-112h64v-208h160v208h64v112c0 35.344-28.656 64-64 64v0zM912 640c0 44.192-35.808 80-80 80s-80-35.808-80-80c0-44.192 35.808-80 80-80s80 35.808 80 80v0zM912 560h-160c-35.344 0-64-28.656-64-64v-112h64v-208h160v208h64v112c0 35.344-28.656 64-64 64v0zM176 848.016v-80h32v80c0 26.464 21.536 48 48 48h112v32h-112c-44.112 0-80-35.888-80-80zM884.688 859.328l-36.688-36.688v25.376c0 44.112-35.888 80-80 80h-368v-32h368c26.464 0 48-21.536 48-48v-25.376l-36.688 36.688-22.624-22.624 75.312-75.312 75.312 75.312-22.624 22.624zM208 48.016v25.376l36.688-36.688 22.624 22.624-75.312 75.312-75.312-75.312 22.624-22.624 36.688 36.688v-25.376c0-44.112 35.888-80 80-80h304v32h-304c-26.464 0-48 21.536-48 48zM592 0.016h32v-32h-32v32zM816 128.016v-80c0-26.464-21.536-48-48-48h-112v-32h112c44.112 0 80 35.888 80 80v80h-32z" />
<glyph unicode="&#xe902;" glyph-name="coronavirus-covid-19-host-human-intect-viral" d="M864 800c0 61.92-50.080 112-112 112s-112-50.080-112-112c0-5.6 0.48-11.2 1.44-16.48 35.040 15.2 77.28 8.48 105.92-20.16l-22.72-22.72c-20 20-50.080 24-73.92 11.84 17.6-38.080 56.32-64.48 101.28-64.48 61.92 0 112 50.080 112 112zM302.848 804.288l27.712 16-32 55.424-27.712-16 8-13.856-28.88-16.672c-14.384 17.36-34.784 29.472-57.968 33.376v33.44h16v32h-64v-32h16v-33.44c-23.184-3.904-43.584-16.016-57.968-33.376l-28.88 16.672 8 13.856-27.712 16-32-55.424 27.712-16 8 13.856 28.96-16.72c-3.888-10.432-6.112-21.648-6.112-33.424s2.224-22.992 6.096-33.424l-28.96-16.72-8 13.856-27.712-16 32-55.424 27.712 16-8 13.856 28.88 16.672c14.4-17.36 34.8-29.472 57.984-33.376v-33.44h-16v-32h64v32h-16v33.44c23.184 3.904 43.584 16.016 57.968 33.376l28.88-16.672-8-13.856 27.712-16 32 55.424-27.712 16-8-13.856-28.96 16.72c3.888 10.432 6.112 21.648 6.112 33.424s-2.224 22.992-6.096 33.424l28.96 16.72 7.984-13.856zM176 704c-35.344 0-64 28.656-64 64s28.656 64 64 64 64-28.656 64-64-28.656-64-64-64zM484.688 715.312l22.624-22.624 75.312 75.312-75.312 75.312-22.624-22.624 36.688-36.688h-121.376v-32h121.376zM336 784h32v-32h-32v32zM896 688h-264.336c-49.648 0-91.104-37.856-95.6-87.312l-8.064-88.688-128-96 64-80 160 112v128h32v-128h-32v-96l-64-384h128l64 384v-384h128v608h32v-224h80v240c0 53.008-42.992 96-96 96zM768 432h-32v32h32v-32zM768 496h-32v128h32v-128z" />
<glyph unicode="&#xe903;" glyph-name="coronavirus-covid-19-medical-microbiology-research-science-virus" d="M240 912c-114.88 0-208-93.12-208-208s93.12-208 208-208 208 93.12 208 208-93.12 208-208 208zM362.576 596.288l-27.712 16 8 13.856-28.88 16.672c-14.384-17.36-34.784-29.472-57.984-33.376v-33.44h16v-32h-64v32h16v33.44c-23.184 3.904-43.584 16.016-57.968 33.376l-28.88-16.672 8-13.856-27.712-16-32 55.44 27.712 16 8-13.856 28.96 16.72c-3.888 10.416-6.112 21.632-6.112 33.408s2.224 22.992 6.096 33.424l-28.96 16.72-8-13.856-27.712 16 32 55.44 27.712-16-8-13.856 28.88-16.672c14.384 17.36 34.784 29.472 57.968 33.376v33.424h-16v32h64v-32h-16v-33.44c23.184-3.904 43.584-16.016 57.968-33.376l28.88 16.672-8 13.856 27.712 16 32-55.44-27.712-16-8 13.856-28.96-16.72c3.904-10.416 6.128-21.632 6.128-33.408s-2.224-22.992-6.096-33.424l28.96-16.72 8 13.856 27.712-16-32-55.424zM240 768c-35.328 0-64-28.656-64-64s28.656-64 64-64 64 28.656 64 64-28.656 64-64 64zM576 512h192v96l112-112v-44.944c14.144 8.176 30.496 12.944 48 12.944 11.232 0 21.984-2.032 32-5.584v53.584l-160 160 80 80-16 16 52.688 52.688 32-32 22.624 22.624-128 128-22.624-22.624 32-32-52.688-52.688-16 16-208-208v-128zM640 256h64v64h96v160h-256v-160h96zM880 284.944v-60.944h-368v-32h368v-128h-112v64h-192v-64h-128c-17.664 0-32-14.336-32-32v-64h480c35.344 0 64 28.656 64 64v245.584c-10.016-3.552-20.752-5.584-32-5.584-17.504 0-33.856 4.768-48 12.944zM928 432c-35.344 0-64-28.656-64-64s28.656-64 64-64c35.344 0 64 28.656 64 64s-28.656 64-64 64zM928 336c-17.664 0-32 14.32-32 32 0 17.664 14.32 32 32 32 17.664 0 32-14.32 32-32 0-17.664-14.32-32-32-32zM208 448h32v-32h-32v32zM208 384h32v-32h-32v32zM208 320h32v-32h-32v32zM208 256h32v-32h-32v32zM208 192h32v-32h-32v32zM208 128h32v-32h-32v32zM208 64h32v-32h-32v32zM272 64h32v-32h-32v32zM336 64h32v-32h-32v32zM480 800h32v-32h-32v32zM544 800h32v-32h-32v32zM608 800h32v-32h-32v32z" />
<glyph unicode="&#xe904;" glyph-name="cough-covid-19-flu-sick-sneezing-sniffling-wheezing" d="M592 624c0 50.704-13.2 98.288-36.208 139.664 58.72 23.696 100.208 81.12 100.208 148.336h-352c-159.056 0-288-128.944-288-288v-208l32-224v-224h304v192h224v96h-64c-26.512 0-48 21.488-48 48s21.488 48 48 48h64v64h96l-80 208zM544 448v-64h-32c-44.112 0-80-35.888-80-80s35.888-80 80-80h32v-32h-224v-192h-240v194.272l-31.68 221.744c70.544 0.176 127.68 57.408 127.68 127.984-35.344 0-64 28.656-64 64s28.656 64 64 64v80h320c9.504 0 18.752 0.992 27.792 2.576 22.832-38.288 36.208-82.848 36.208-130.576v-5.952l65.408-170.048h-81.408zM913.296 575.888c-9.632 17.888-31.744 24.88-49.92 15.792-17.664-8.816-25.472-29.824-17.888-48.064l66.512-159.616v-128c0 26.512-21.488 48-48 48s-48-21.488-48-48v-128l64-64v-96h128v432l-94.704 175.888zM405.072 641.68l67.376-33.68-67.376-33.68 14.304-28.64 124.624 62.32-124.624 62.32zM608 320h32v-32h-32v32zM672 320h32v-32h-32v32zM672 256h32v-32h-32v32zM672 384h32v-32h-32v32zM736 384h32v-32h-32v32zM736 448h32v-32h-32v32zM736 320h32v-32h-32v32zM736 256h32v-32h-32v32zM736 192h32v-32h-32v32z" />
<glyph unicode="&#xe905;" glyph-name="box-facial-napkin-paper-tissue" d="M304 464v464h201.376c14.48 0 28.384-5.744 38.624-16s24.144-16 38.624-16h137.376v-432h-416zM32 288v-256c0-35.344 28.656-64 64-64h832c35.344 0 64 28.656 64 64v256h-960zM512 64c-70.688 0-128 35.808-128 80s57.312 80 128 80c70.688 0 128-35.808 128-80s-57.312-80-128-80zM816 224h-32v32h32v-32zM880 224h-32v32h32v-32zM944 224h-32v32h32v-32zM832 624h-80v-96c17.664 0 32-14.336 32-32v-32c0-17.664-14.336-32-32-32h-480c-17.664 0-32 14.336-32 32v32c0 17.664 14.336 32 32 32v96h-80l-160-304h960l-160 304z" />
<glyph unicode="&#xe906;" glyph-name="coronavirus-covid-19-infection-tourist-transmission-travel-virus" d="M896 816c0-53.019-42.981-96-96-96s-96 42.981-96 96c0 53.019 42.981 96 96 96s96-42.981 96-96zM718.576 308.496l-30.576-132.496-96-144 80-64 128 176 19.088 63.648-97.488 97.504c-1.056 1.072-1.984 2.256-3.024 3.344zM775.424 440.512l-68.672 154.496 29.248 12.992 64-144 128-64 48 80-64 36.576v139.424c0 35.344-28.656 64-64 64h-96c-35.344 0-64-28.656-64-64v-192.464c0-50.928 20.224-99.76 56.24-135.76l135.76-135.776v-224h96v256l-58.112 145.28-142.464 71.232zM656 463.52v82.72l-64-82.24 8.96-8.96-139.84-139.84-101.76 101.76c-12.48 12.48-32.8 12.48-45.28 0l-277.28-277.12c-9.28-9.44-9.28-24.64 0-33.92 9.44-9.44 24.64-9.44 34.080 0l28.16 28.32 90.56-90.56-28.32-28.32c-9.28-9.28-9.28-24.48 0-33.92 9.44-9.44 24.64-9.44 33.92 0l277.28 277.12c8.32 8.48 10.88 20.16 8.16 30.88l142.88 143.040 32.48-32.48 6.88 8.96c-4.32 17.6-6.88 35.84-6.88 54.56zM251.36 164.64l-22.72 22.72 80 80 22.72-22.72-80-80zM363.36 276.64l-22.72 22.72 32 32 22.72-22.72-32-32zM564.688 715.312l22.624-22.624 75.312 75.312-75.312 75.312-22.624-22.624 36.688-36.688h-121.376v-32h121.376zM416 784h32v-32h-32v32zM352 784h32v-32h-32v32zM65.152 731.712l-27.712-16 32-55.424 27.712 16-8 13.856 28.88 16.672c14.384-17.36 34.784-29.472 57.968-33.376v-33.44h-16v-32h64v32h-16v33.44c23.184 3.904 43.584 16.016 57.968 33.376l28.88-16.672-8-13.856 27.712-16 32 55.424-27.712 16-8-13.856-28.96 16.72c3.888 10.432 6.112 21.648 6.112 33.424s-2.224 22.992-6.096 33.424l28.96 16.72 8-13.856 27.712 16-32 55.424-27.712-16 8-13.856-28.88-16.672c-14.4 17.36-34.8 29.472-57.984 33.376v33.44h16v32h-64v-32h16v-33.44c-23.184-3.904-43.584-16.016-57.968-33.376l-28.88 16.672 8 13.856-27.712 16-32-55.424 27.712-16 8 13.856 28.96-16.72c-3.888-10.432-6.112-21.648-6.112-33.424s2.224-22.992 6.096-33.424l-28.96-16.72-7.984 13.856zM192 832c35.344 0 64-28.656 64-64s-28.656-64-64-64-64 28.656-64 64 28.656 64 64 64z" />
<glyph unicode="&#xe907;" glyph-name="chuck-nausea-puke-throw-up-vomiting" d="M896 32h32v-64h-32v64zM928 64h-32v96c0 114.688-93.312 208-208 208h-16v32h16c132.336 0 240-107.664 240-240v-96zM832 80h32v-112h-32v112zM864 112h-32v48c0 79.392-64.608 144-144 144h-16v32h16c97.040 0 176-78.96 176-176v-48zM800-32h-32v192c0 44.112-35.888 80-80 80h-16v32h16c61.76 0 112-50.24 112-112v-192zM587.312 628.688l-22.624 22.624-28.688-28.688-28.688 28.688-22.624-22.624 28.688-28.688-28.688-28.688 22.624-22.624 28.688 28.688 28.688-28.688 22.624 22.624-28.688 28.688zM656 640c0 50.704-13.2 98.288-36.208 139.664 58.72 23.696 100.208 81.12 100.208 148.336h-352c-159.056 0-288-128.944-288-288v-208l32-224v-240h304v208h224v96h-64c-26.512 0-48 21.488-48 48s21.488 48 48 48h64v64h96l-80 208zM608 464v-64h-32c-44.112 0-80-35.888-80-80s35.888-80 80-80h32v-32h-224v-208h-240v210.272l-31.68 221.744c70.544 0.176 127.68 57.408 127.68 127.984-35.344 0-64 28.656-64 64s28.656 64 64 64v80h320c9.504 0 18.752 0.992 27.792 2.576 22.832-38.288 36.208-82.848 36.208-130.576v-5.952l65.408-170.048h-81.408z" />
<glyph unicode="&#xe908;" glyph-name="flight-route-tourism-transmit-travel" d="M567.456 720.56l-153.168 216.688-90.208-32.832 87.552-240.56zM174.096 577.408l-91.888 102.768-60.144-21.888 43.776-120.288zM998.064 690.016c-11.616 31.952-46.048 48.736-78.224 39.216l-94-33.808-10.944 30.080 66.448 23.888-26.512 16.144c-16.608 10.112-36.912 12.128-55.184 5.472l-722.864-263.072 32.832-90.208 339.008 4.208 45.104 16.416 93.024-255.6 90.224 32.832-23.328 280.96 306.16 111.424c33.232 12.112 50.352 48.832 38.256 82.048zM619.424 654.352l10.944-30.064-30.064-10.944-10.944 30.064 30.064 10.944zM559.28 632.464l10.944-30.064-30.064-10.944-10.944 30.064 30.064 10.944zM499.136 610.576l10.944-30.064-30.064-10.944-10.944 30.064 30.064 10.944zM239.472 482l-10.96 30.064 30.064 10.96 10.96-30.064-30.064-10.96zM299.616 503.904l-10.96 30.064 30.064 10.96 10.96-30.064-30.064-10.96zM359.728 525.792l-10.928 30.064 30.064 10.944 10.944-30.064-30.080-10.944zM419.872 547.68l-10.944 30.064 30.064 10.944 10.944-30.064-30.064-10.944zM660.432 635.248l-10.944 30.064 30.064 10.944 10.944-30.064-30.064-10.944zM720.576 657.136l-10.944 30.064 30.064 10.944 10.944-30.064-30.064-10.944zM304 96h272v32h-272c-35.296 0-64 28.704-64 64s28.704 64 64 64h98.944c6.624-18.592 24.208-32 45.056-32 26.496 0 48 21.504 48 48s-21.504 48-48 48c-20.864 0-38.448-13.408-45.056-32h-98.944c-52.944 0-96-43.056-96-96s43.056-96 96-96zM608 128h32v-32h-32v32zM808 128h-136v-32h136c22.064 0 40-17.952 40-40s-17.936-40-40-40h-504v-32h504c39.696 0 72 32.304 72 72s-32.304 72-72 72zM80 48c-26.496 0-48-21.504-48-48s21.504-48 48-48c20.864 0 38.448 13.408 45.056 32h146.944v32h-146.944c-6.608 18.592-24.192 32-45.056 32z" />
<glyph unicode="&#xe909;" glyph-name="cold-fever-flu-nose-sick-snot" d="M378.976 178.672l-10.976 1.568v-84.24c0-22.096 17.904-40 40-40s40 17.904 40 40v47.712l-49.392 28.208c-6.080 3.504-12.672 5.76-19.632 6.752zM710.4 361.6l-33.344 33.328c-13.648 13.664-22.4 31.456-24.864 50.624l-49.952 387.104c-5.856 45.376-44.496 79.344-90.24 79.344s-84.384-33.968-90.24-79.344l-49.952-387.104c-2.464-19.168-11.216-36.96-24.864-50.624l-33.344-33.328c-16.4-16.384-25.6-38.624-25.6-61.808 0-43.488 31.984-80.368 75.024-86.512l20.464-2.928c10.896-1.552 21.44-5.152 30.992-10.64l54.16-30.928c26.864-15.36 59.856-15.36 86.72 0l54.16 30.928c9.552 5.488 20.096 9.088 30.992 10.64l20.464 2.928c43.040 6.144 75.024 43.024 75.024 86.512 0 23.184-9.2 45.424-25.6 61.808zM624 144c0 0-48-67.824-48-112s21.488-64 48-64 48 19.824 48 64-48 112-48 112z" />
<glyph unicode="&#xe90a;" glyph-name="bronchitis-covid-19-inflamation-influenza-lung-pneumonia" d="M151.232 630.080l-25.12 19.824c48.784 61.76 106.176 115.936 170.592 161.040l18.336-26.224c-61.856-43.296-116.976-95.328-163.808-154.64zM784 928h208l-80-144h48l-176-176 32 160h-48zM649.44 745.44c-6.080 4.32-13.44 6.56-20.96 6.56-20.16 0-36.48-16.32-36.48-36.48v-203.52c-35.344 0-64 28.656-64 64v352h-64v-352c0-35.344-28.656-64-64-64v203.52c0 20.16-16.32 36.48-36.48 36.48-7.52 0-14.88-2.24-20.96-6.56-88.736-62.192-161.184-142.4-213.712-233.76 39.36-66.832 110.208-111.68 191.152-111.68 28.208 0 55.12 5.664 80 15.568v32.432c38.24 0 72.64 16.8 96 43.36 23.36-26.56 57.76-43.36 96-43.36v-266.080c0-14.656 4.992-28.608 13.744-39.744 141.152 37.104 254.208 144.032 300.064 281.456-52.128 128-140.080 240.32-256.368 321.808zM638.32 118.416l265.52-145.936c5.28-2.88 11.36-4.48 17.6-4.48h2.080c20.176 0 36.48 16.32 36.48 36.48v144.48c0 78.96-12.896 156.24-37.168 229.168-52.496-122.72-156.416-218.32-284.512-259.712zM56.528 335.312c-0.624-2.336-1.376-4.64-1.968-6.992-14.88-57.92-22.56-118.080-22.56-179.36v-144.48c0-20.16 16.32-36.48 36.48-36.48h2.080c6.24 0 12.32 1.6 17.6 4.48l134.592 74.048c-74.832 56.4-134.672 160.112-166.224 288.784zM320 368c-85.984 0-162.032 44.096-208.48 111.344-1.12-2.208-2.416-4.336-3.52-6.56-12.096-24.288-22.704-49.312-31.984-74.896 26-154.944 92.176-279.392 177.008-334.752l113.856 62.592c20.48 11.2 33.12 32.8 33.12 56.16v199.504c-25.2-8.592-52.048-13.392-80-13.392z" />
<glyph unicode="&#xe90b;" glyph-name="avoid-eat-meat-no-raw" d="M512 944c-273.936 0-496-222.064-496-496s222.064-496 496-496 496 222.064 496 496c0 273.936-222.064 496-496 496zM512 16c-238.592 0-432 193.408-432 432 0 107.776 39.552 206.256 104.832 281.92l609.088-609.088c-75.68-65.264-174.144-104.832-281.92-104.832zM839.168 166.080l-107.536 107.536c12.752 1.392 25.264 3.6 37.376 6.784 56.080 14.832 94.992 65.808 94.992 123.808v17.904c-34.416-51.824-93.248-86.096-160-86.096h-34.768l-32 32h66.768c88.352 0 160 71.648 160 160s-71.648 160-160 160h-352c-10.896 0-21.52-1.056-31.904-2.848l-90.016 90.016c75.664 65.248 174.128 104.816 281.92 104.816 238.592 0 432-193.408 432-432 0-107.776-39.568-206.256-104.832-281.92zM424 272.016h-72c-81.536 0-152.816 43.936-192 109.216v-31.712c0-48.384 26.704-93.792 70.464-114.384 36.928-17.392 78.080-27.136 121.536-27.136h72c52.368 0 102.528 23.776 135.76 64h37.728l-61.056 61.056c-8.944-3.104-17.040-8.528-22.816-16.24-21.040-28.048-54.544-44.8-89.616-44.8zM352 304h72c25.184 0 48.896 11.856 64 32 6.608 8.816 14.928 15.92 24.224 21.264l-284.736 284.736c-41.248-35.216-67.488-87.504-67.488-146 0-106.016 85.968-192 192-192zM304 528c17.664 0 32-14.336 32-32s-14.336-32-32-32-32 14.336-32 32 14.336 32 32 32z" />
<glyph unicode="&#xe90c;" glyph-name="convalescence-covid-19-recovery-recuperation-resilience-winner" d="M864 40.016v32h-68.528c-0.656 1.168-1.392 2.32-2.176 3.472l41.856 8.864-6.624 31.312-67.808-14.352c-6.448 3.264-13.648 6.256-21.376 8.992l13.232 8.4-17.152 27.008-38.224-24.272c-13.248 2.48-27.36 4.32-42.128 5.392l0.928 0.224-64 192-160 32v144.96h112l112 112-32 32v119.264l160 72.72-160 72.736v7.28h-32v-272l-80-80h-159.728c12.064 0.048 23.488 2.736 33.664 7.504-20.336 10.88-33.936 32-33.936 56.48h32c0-17.6 14.4-32 32-32 10.080 13.28 16 29.92 16 48 0 44.16-35.84 80-80 80s-80-35.84-80-80c0-44.112 35.76-79.904 79.856-79.984h-111.856l-85.296-98.208c-16.304-18.752-20.256-45.248-10.16-67.952l47.456-106.8 64 32-48 96 64 64v-176l-16-319.040h80l32 287.040 176-32 42.288-112.752c-12.384-1.104-24.224-2.768-35.472-4.88l-38.24 24.272-17.152-27.008 13.216-8.4c-7.728-2.752-14.912-5.744-21.36-8.992l-67.808 14.352-6.624-31.312 41.856-8.864c-0.784-1.152-1.536-2.304-2.176-3.472h-68.528v-32h68.512c0.656-1.184 1.408-2.336 2.192-3.488l-41.856-8.848 6.624-31.312 67.824 14.336c6.448-3.248 13.632-6.24 21.344-8.976l-13.232-8.384 17.152-27.024 38.272 24.288c17.696-3.312 36.896-5.504 57.168-6.24v-16.352h32v16.336c20.256 0.752 39.472 2.928 57.152 6.24l38.272-24.288 17.152 27.024-13.216 8.384c7.712 2.752 14.896 5.728 21.344 8.992l67.824-14.352 6.624 31.312-41.856 8.848c0.784 1.152 1.536 2.32 2.192 3.488h68.512z" />
<glyph unicode="&#xe90d;" glyph-name="coronavirus-covid-19-flu-protection-vaccine-virus" d="M384 496v80h48v112h-288v-112h48v-80c-79.536 0-144-64.464-144-144v-384h480v384c0 79.536-64.464 144-144 144zM384 224c0-11.776-2.224-23.008-6.112-33.424l28.944-16.72 8 13.856 27.712-16-32-55.424-27.712 16 8 13.856-28.88 16.672c-14.384-17.36-34.784-29.472-57.968-33.376v-33.44h16v-32h-64v32h16v33.44c-23.184 3.904-43.584 16.016-57.968 33.376l-28.88-16.672 8-13.856-27.712-16-32 55.424 27.712 16 8-13.856 28.944 16.72c-3.856 10.416-6.080 21.648-6.080 33.424s2.224 23.008 6.112 33.424l-28.944 16.72-8-13.856-27.712 16 32 55.424 27.712-16-8-13.856 28.88-16.672c14.384 17.36 34.784 29.472 57.968 33.376v33.44h-16v32h64v-32h-16v-33.44c23.184-3.904 43.584-16.016 57.968-33.376l28.88 16.672-8 13.856 27.712 16 32-55.424-27.712-16-8 13.856-28.944-16.72c3.856-10.416 6.080-21.648 6.080-33.424zM352 224c0-35.346-28.654-64-64-64s-64 28.654-64 64c0 35.346 28.654 64 64 64s64-28.654 64-64zM928 0v96h32v64h-80v32h80v32h-48v32h48v32h-48v32h48v32h-80v32h80v32h-48v32h48v32h-48v32h48v80h-48v128h-16v208h-32v-208h-16v-128h-48v-496h32v-96h-64v-32h224v32zM333.232 778.144l-14.192 28.688c-10.336-5.12-20.592-10.752-30.496-16.768l16.624-27.344c9.12 5.536 18.544 10.72 28.064 15.424zM656.448 814.512c-10.592 4.64-21.536 8.88-32.496 12.576l-10.224-30.336c10.080-3.392 20.128-7.296 29.872-11.568l12.848 29.328zM817.856 685.504c-6.816 9.248-14.176 18.352-21.872 27.088l-24-21.184c7.088-8.016 13.856-16.4 20.128-24.896l25.744 18.992zM392.88 801.344l-8.96 30.72c-11.088-3.232-22.192-6.992-32.992-11.2l11.6-29.824c9.936 3.872 20.144 7.344 30.352 10.304zM590.48 836.768c-11.232 2.72-22.736 4.992-34.208 6.72l-4.768-31.648c10.528-1.6 21.12-3.664 31.456-6.176l7.52 31.104zM496 816c7.936 0 15.824-0.256 23.632-0.752l2.032 31.936c-11.456 0.72-23.184 0.976-34.768 0.704l0.688-32 8.416 0.112zM455.616 813.808l-3.44 31.808c-11.504-1.248-23.088-3.024-34.432-5.28l6.224-31.392c10.416 2.080 21.072 3.712 31.648 4.864zM771.856 737.664c-8.304 7.936-17.12 15.648-26.24 22.928l-19.968-24.992c8.368-6.688 16.48-13.776 24.112-21.056l22.096 23.12zM278.528 744.912l-18.944 25.776c-9.36-6.864-18.48-14.208-27.136-21.792l21.088-24.064c7.984 6.992 16.384 13.744 24.992 20.080zM717.52 781.12c-9.632 6.416-19.664 12.48-29.792 18.032l-15.344-28.080c9.312-5.104 18.528-10.672 27.392-16.576l17.744 26.624zM676.24 127.072l15.68-27.888c9.888 5.568 19.68 11.632 29.088 18.048l-18.032 26.432c-8.64-5.904-17.632-11.472-26.736-16.592zM618.992 101.040l10.688-30.16c10.656 3.776 21.344 8.080 31.728 12.8l-13.248 29.136c-9.568-4.336-19.376-8.304-29.168-11.776zM751.76 183.408c-7.52-7.28-15.456-14.32-23.568-20.912l20.224-24.816c8.8 7.168 17.408 14.816 25.6 22.704l-22.256 23.024zM558.112 85.2l5.344-31.552c11.216 1.904 22.48 4.32 33.488 7.184l-8.064 30.976c-10.112-2.64-20.464-4.848-30.768-6.608zM648.112 658.992c-33.856 8.656-60.48 35.28-69.136 69.12-0.8 3.216-5.152 3.216-5.968 0-8.656-33.84-35.28-60.464-69.12-69.12-3.216-0.816-3.216-5.168 0-5.984 33.84-8.656 60.464-35.28 69.12-69.12 0.816-3.216 5.168-3.216 5.968 0 8.656 33.84 35.28 60.464 69.136 69.12 3.216 0.816 3.216 5.168 0 5.984z" />
<glyph unicode="&#xe90e;" glyph-name="covid-19-home-hygiene-prevent-protection-quarantine-stay" d="M160 361.12h-32v5.632c-2.096 1.024-4.16 2.112-6.208 3.232l15.504 28c4.064-2.256 8.288-4.272 12.64-6l10.064-4.016v-26.848zM91.968 392.112c-8.896 8.624-16.672 18.384-23.072 29.040l27.424 16.496c4.976-8.288 11.008-15.872 17.904-22.544l-22.256-22.992zM53.984 454.928c-3.568 11.904-5.616 24.192-6.048 36.496l31.984 1.152c0.336-9.6 1.936-19.168 4.72-28.464l-30.656-9.184zM82.624 521.216l-31.184 7.152c2.768 12.064 7.136 23.76 12.96 34.768l28.288-14.976c-4.528-8.528-7.92-17.6-10.064-26.944zM109.36 571.632l-23.536 21.68c3.984 4.336 8.32 8.496 12.896 12.384l13.024 11.056 20.72-24.368-12.992-11.040c-3.584-3.056-6.96-6.32-10.112-9.712zM157.632 613.776l-20.72 24.368 25.168 21.392 20.72-24.368-25.168-21.392zM207.952 656.56l-20.72 24.368 25.168 21.376 20.72-24.368-25.168-21.376zM258.288 699.328l-20.736 24.368 25.152 21.392 20.736-24.368-25.152-21.392zM308.608 742.112l-20.72 24.368 25.168 21.392 20.72-24.368-25.168-21.392zM358.928 784.896l-20.72 24.368 25.152 21.376 20.72-24.368-25.152-21.376zM409.248 827.664l-20.72 24.368 25.168 21.392 20.72-24.368-25.168-21.392zM459.584 870.432l-20.736 24.368 25.152 21.408 20.736-24.368-25.152-21.408zM510.176 913.44l-20.704 24.4 22.528 19.136 22.544-19.136-20.72-24.4-1.824 1.568zM932.352 392.384l-22.352 22.88c6.896 6.736 12.896 14.352 17.856 22.64l27.456-16.432c-6.384-10.64-14.096-20.448-22.96-29.088zM970.144 455.312l-30.672 9.088c2.768 9.344 4.336 18.928 4.656 28.48l31.984-1.056c-0.416-12.288-2.432-24.576-5.968-36.512zM941.328 521.504c-2.192 9.376-5.6 18.432-10.128 26.912l28.224 15.088c5.856-10.96 10.256-22.624 13.056-34.72l-31.152-7.28zM914.432 571.856c-3.072 3.328-6.352 6.48-9.888 9.472l-13.28 11.296 20.736 24.368 13.264-11.28c4.496-3.808 8.72-7.872 12.656-12.112l-23.488-21.744zM866.112 614.016l-25.168 21.392 20.72 24.368 25.168-21.392-20.72-24.368zM815.792 656.784l-25.168 21.392 20.72 24.368 25.168-21.392-20.72-24.368zM765.456 699.568l-25.152 21.392 20.736 24.368 25.152-21.392-20.736-24.368zM715.136 742.336l-25.168 21.392 20.72 24.368 25.168-21.392-20.72-24.368zM664.8 785.12l-25.152 21.392 20.736 24.368 25.152-21.392-20.736-24.368zM614.496 827.888l-25.168 21.392 20.72 24.368 25.168-21.392-20.72-24.368zM564.176 870.672l-25.168 21.392 20.72 24.368 25.168-21.392-20.72-24.368zM896 361.12h-32v26.848l10.064 4.016c4.352 1.728 8.56 3.744 12.64 6l15.504-28c-2.032-1.12-4.112-2.208-6.208-3.232v-5.632zM784.208-48.016l-0.048 32c8.96 0.016 17.744 1.504 26.112 4.432l10.56-30.224c-11.76-4.096-24.096-6.192-36.624-6.208zM752.192-48h-31.984v32h31.984v-32zM688.224-48h-31.984v32h31.984v-32zM624.256-48h-31.984v32h31.984v-32zM560.288-48h-31.984v32h31.984v-32zM496.32-48h-31.984v32h31.984v-32zM432.352-48h-31.984v32h31.984v-32zM368.384-48h-31.984v32h31.984v-32zM304.416-48h-31.984v32h31.984v-32zM240.448-48h-0.448c-12.384 0-24.56 2.016-36.16 5.984l10.352 30.288c8.272-2.832 16.96-4.272 25.808-4.272l0.448-32zM171.2-24.336c-9.84 7.68-18.288 16.88-25.088 27.312l26.816 17.472c4.864-7.472 10.912-14.048 17.968-19.568l-19.696-25.216zM853.344-23.904l-19.824 25.12c7.008 5.536 13.024 12.16 17.84 19.664l26.928-17.28c-6.736-10.512-15.12-19.76-24.944-27.504zM131.28 37.072c-2.176 8.768-3.28 17.824-3.28 26.928v8.672h32v-8.672c0-6.512 0.784-12.992 2.336-19.232l-31.056-7.696zM892.896 37.744l-31.104 7.536c1.472 6.080 2.208 12.384 2.208 18.72v9.264h32v-9.264c0-8.88-1.040-17.696-3.104-26.256zM160 104.656h-32v31.984h32v-31.984zM896 105.248h-32v31.984h32v-31.984zM160 168.624h-32v31.984h32v-31.984zM896 169.216h-32v31.984h32v-31.984zM160 232.592h-32v31.968h32v-31.968zM896 233.184h-32v31.984h32v-31.984zM160 296.544h-32v31.984h32v-31.984zM896 297.152h-32v31.984h32v-31.984zM192 448h32v-32h-32v32zM153.216 425.744c-11.744 6.464-21.776 16.048-28.992 27.664l27.184 16.88c4.336-6.976 10.304-12.688 17.248-16.512l-15.44-28.032zM112.064 491.264c-0.112 1.76-0.176 3.52-0.176 5.296 0 12 2.64 23.504 7.808 34.16l28.784-14c-3.040-6.272-4.592-13.040-4.592-20.16 0-1.056 0.032-2.128 0.096-3.168l-31.92-2.128zM165.056 536.080l-20.736 24.368 24.64 20.96 20.736-24.368-24.64-20.96zM214.336 577.968l-20.72 24.368 24.64 20.944 20.72-24.368-24.64-20.944zM263.6 619.856l-20.72 24.368 24.64 20.944 20.72-24.368-24.64-20.944zM312.896 661.728l-20.736 24.368 24.64 20.96 20.736-24.368-24.64-20.96zM362.16 703.632l-20.736 24.368 24.64 20.96 20.736-24.368-24.64-20.96zM411.424 745.52l-20.72 24.368 24.64 20.944 20.72-24.368-24.64-20.944zM460.704 787.408l-20.72 24.368 24.64 20.944 20.72-24.368-24.64-20.944zM510.176 829.44l-20.704 24.4 22.528 19.136 22.544-19.136-20.72-24.4-1.824 1.568zM871.072 425.888l-15.552 27.968c6.944 3.856 12.88 9.6 17.168 16.576l27.264-16.752c-7.152-11.648-17.152-21.28-28.88-27.792zM911.984 491.552l-31.936 2.064c0.064 0.992 0.096 1.968 0.096 2.96 0 7.168-1.584 14.032-4.672 20.336l28.736 14.096c5.264-10.736 7.936-22.32 7.952-34.416-0.032-1.696-0.080-3.376-0.176-5.040zM858.784 536.256l-24.64 20.944 20.72 24.368 24.64-20.944-20.72-24.368zM809.488 578.128l-24.64 20.96 20.736 24.368 24.64-20.96-20.736-24.368zM760.224 620.016l-24.64 20.944 20.72 24.368 24.64-20.944-20.72-24.368zM710.96 661.904l-24.64 20.944 20.72 24.368 24.64-20.944-20.72-24.368zM661.664 703.776l-24.64 20.96 20.736 24.368 24.64-20.96-20.736-24.368zM612.4 745.664l-24.64 20.944 20.72 24.368 24.64-20.944-20.72-24.368zM563.12 787.568l-24.64 20.944 20.72 24.368 24.64-20.944-20.72-24.368zM800 448h32v-32h-32v32zM778.624 16h-31.36v32h31.36v-32zM715.904 16h-31.36v32h31.36v-32zM653.168 16h-31.36v32h31.36v-32zM590.448 16h-31.36v32h31.36v-32zM527.728 16h-31.36v32h31.36v-32zM465.008 16h-31.36v32h31.36v-32zM402.304 16h-31.36v32h31.36v-32zM339.584 16h-31.36v32h31.36v-32zM276.848 16h-31.36v32h31.36v-32zM205.296 30.848c-8.576 8.976-13.296 20.768-13.296 33.168v6.944h32v-6.96c0-4.144 1.568-8.064 4.432-11.056l-23.136-22.096zM818.816 30.944l-23.216 22.032c2.848 2.976 4.4 6.896 4.4 11.024v7.040h32v-7.040c0-12.336-4.672-24.096-13.184-33.056zM224 102.32h-32v31.36h32v-31.36zM832 102.4h-32v31.36h32v-31.36zM224 165.024h-32v31.36h32v-31.36zM832 165.12h-32v31.36h32v-31.36zM224 227.744h-32v31.36h32v-31.36zM832 227.84h-32v31.36h32v-31.36zM224 290.464h-32v31.36h32v-31.36zM832 290.56h-32v31.36h32v-31.36zM224 353.184h-32v31.36h32v-31.36zM832 353.28h-32v31.36h32v-31.36zM512 768l-320-272h80v-400h128v176h-64v144c0 46.080 32.624 84.64 75.984 93.872-7.584 15.104-11.984 32.096-11.984 50.128 0 61.744 50.24 112 112 112s112-50.256 112-112c0-18.032-4.384-35.024-11.984-50.128 43.36-9.232 75.984-47.792 75.984-93.872v-144h-64v-176h128v400h80l-320 272zM592 560c0-44.192-35.824-80-80-80s-80 35.808-80 80c0 44.192 35.824 80 80 80s80-35.808 80-80v0zM592 480h-160c-35.344 0-64-28.656-64-64v-112h64v-208h160v208h64v112c0 35.344-28.656 64-64 64v0z" />
<glyph unicode="&#xe90f;" glyph-name="app-follow-mobile-news-read" d="M704 176h288v384h-192v176c-53.008 0-96-42.992-96-96v-464zM128 512c0-26.512-21.488-48-48-48s-48 21.488-48 48c0 26.512 21.488 48 48 48s48-21.488 48-48v0zM128 416c0-26.512-21.488-48-48-48s-48 21.488-48 48 21.488 48 48 48 48-21.472 48-48v0zM128 320c0-26.512-21.488-48-48-48s-48 21.488-48 48 21.488 48 48 48 48-21.472 48-48v0zM128 224c0-26.512-21.488-48-48-48s-48 21.488-48 48 21.488 48 48 48 48-21.472 48-48v0zM672 832h-544v32c0 35.344 28.656 64 64 64h416c35.344 0 64-28.656 64-64v-32zM128 64h544v-32c0-35.344-28.656-64-64-64h-416c-35.344 0-64 28.656-64 64v32zM128 800v-704h544v704h-544zM400 608.016h160v-32h-160v32zM608 512v-128h-160v128h160zM192 720h160v-128h-160v128zM176 528.016h224v-32h-224v32zM176 464.016h224v-32h-224v32zM176 400.016h224v-32h-224v32zM352 176h-160v128h160v-128zM432 160.016h-32v32h32v-32zM496 160.016h-32v32h32v-32zM560 160.016h-32v32h32v-32zM624 160.016h-32v32h32v-32zM624 224.016h-224v32h224v-32zM624 288.016h-224v32h224v-32zM624 576.016h-32v32h32v-32zM624 640.016h-224v32h224v-32zM624 704.016h-224v32h224v-32z" />
<glyph unicode="&#xe910;" glyph-name="building-healthcare-hospital-medical-nursing" d="M752 624v304h-480v-304h-240v-656h416v192h-48v32h224v-32h-48v-192h416v656h-240zM208 144h-96v96h96v-96zM208 304h-96v96h96v-96zM208 464h-96v96h96v-96zM400 272h-64v64h64v-64zM400 400h-64v64h64v-64zM400 528h-64v64h64v-64zM624 592h64v-64h-64v64zM624 464h64v-64h-64v64zM544 272h-64v64h64v-64zM544 400h-64v64h64v-64zM544 528h-64v64h64v-64zM608 720h-64v-64h-64v64h-64v64h64v64h64v-64h64v-64zM624 272v64h64v-64h-64zM704 32h-32v32h32v-32zM704 96h-32v32h32v-32zM704 160h-32v32h32v-32zM912 144h-96v96h96v-96zM912 304h-96v96h96v-96zM912 464h-96v96h96v-96z" />
<glyph unicode="&#xe911;" glyph-name="covid-19-doctor-flu-mask-protection-wearing" d="M432 560c0-17.673-14.327-32-32-32s-32 14.327-32 32c0 17.673 14.327 32 32 32s32-14.327 32-32zM656 560c0-17.673-14.327-32-32-32s-32 14.327-32 32c0 17.673 14.327 32 32 32s32-14.327 32-32zM976 224v384c0 97.28-78.72 176-176 176h-38.72c-12.48 21.92-27.84 41.92-45.6 59.68-52.16 52-124.16 84.32-203.68 84.32-159.040 0-288-128.96-288-288h-32c-35.344 0-64-28.656-64-64s28.656-64 64-64h32v55.408l73.44-85.68c5.744-6.704 15.856-7.488 22.56-1.728 6.72 5.744 7.488 15.84 1.744 22.56l-75.184 87.696c-5.744 6.72-15.84 7.488-22.56 1.744v32c115.040 0 208 78.72 208 176 0-97.28 164.64-176 368-176v16h32c35.36 0 64-28.64 64-64s-28.64-64-64-64h-32v-16c-8.016 3.696-17.52 0.208-21.232-7.824l-74.768-161.968v25.792c1.728-8.672-3.888-17.088-12.544-18.832l-48.624-9.712c-8.672-1.744-17.104 3.872-18.832 12.544s3.888 17.088 12.544 18.832l48.624 9.712c8.672 1.744 17.104-3.872 18.832-12.544v63.984c-1.744-8.656-10.16-14.272-18.832-12.544l-48.624 9.712c-8.672 1.76-14.288 10.192-12.544 18.848 1.728 8.672 10.16 14.288 18.832 12.544l48.624-9.712c8.192-1.632 13.44-9.296 12.544-17.472v62.64l-192 32-192-32v-64c-1.728 8.672 3.888 17.088 12.544 18.832l48.624 9.712c8.672 1.744 17.104-3.872 18.832-12.544s-3.888-17.088-12.544-18.832l-48.624-9.712c-8.672-1.744-17.104 3.872-18.832 12.544v-89.824l-74.768 162c-3.696 8.032-13.2 11.536-21.216 7.824h-0.016c-8.016-3.696-11.536-13.2-7.824-21.232l82.592-178.944c3.696-8.016 13.2-11.52 21.232-7.824 0 0 0 0 0 0 20.144-15.104 41.664-27.392 64-37.152v-38.848c0-30.4-21.28-56.48-50.88-62.72l-154.080-32.48c-30.56-6.4-58.4-20.8-81.12-40.96-22.56-20.16-40-46.080-49.92-75.84v-32h928v32c-9.92 29.76-27.36 55.68-49.92 75.84-22.72 20.16-50.56 34.56-81.12 40.96l-35.2 7.36-118.88 25.12c-29.6 6.24-50.88 32.32-50.88 62.72v38.848c22.336 9.76 43.856 22.048 64 37.152v0c0 0 0 0 0 0 8.016-3.696 17.52-0.208 21.232 7.824l74.768 161.968v-57.792c0-97.28 78.72-176 176-176zM332.544 333.168c-8.672 1.744-14.288 10.176-12.544 18.832 1.728 8.672 10.16 14.288 18.832 12.544l48.624-9.712c8.656-1.728 14.272-10.16 12.544-18.832-1.744-8.656-10.16-14.272-18.832-12.544l-48.624 9.712zM684.32 119.68l52.8-11.040c-59.68-37.12-140.64-58.88-225.12-58.88s-165.44 21.76-225.12 58.88l52.8 11.040c44.32 9.44 76.32 48.96 76.32 94.080v25.104c62.448-19.632 129.552-19.632 192 0v-25.104c0-45.12 32-84.64 76.32-94.080zM726.4 483.2l76.8 102.4c5.296 7.072 3.872 17.088-3.2 22.4-7.056 5.312-17.088 3.872-22.4-3.2l-76.8-102.4c-5.296-7.072-3.872-17.088 3.2-22.4 7.056-5.312 17.088-3.872 22.4 3.2z" />
<glyph unicode="&#xe912;" glyph-name="advise-avatar-doctor-suggestion-warning" d="M912 624h-32v-128h32c35.344 0 64 28.656 64 64v0c0 35.344-28.656 64-64 64zM720 254.080c-38.56-19.2-81.92-30.080-128-30.080s-89.44 10.88-128 30.080c-85.76 42.56-147.2 126.56-158.24 225.92h572.48c-11.040-99.36-72.48-183.36-158.24-225.92zM880 640v-16c-52.96 0-96 43.040-96 96v16h-444.64c-5.28 0-10.72 0.48-15.84 1.28-0.8 0.16-1.6 0.16-2.24 0.32-40.64 7.36-74.4 38.72-80.32 80.48-7.68 54.72 30.88 102.080 82.24 108.96 6.88-18.080 24.32-31.040 44.8-31.040h256c141.44 0 256-114.56 256-256zM512 560c0-17.673-14.327-32-32-32s-32 14.327-32 32c0 17.673 14.327 32 32 32s32-14.327 32-32zM736 560c0-17.673-14.327-32-32-32s-32 14.327-32 32c0 17.673 14.327 32 32 32s32-14.327 32-32zM592 82.224l149.808 81.712c-13.44 11.888-21.808 29.088-21.808 48.064v6.8c-39.216-17.136-82.464-26.8-128-26.8s-88.784 9.664-128 26.8v-6.8c0-18.976-8.368-36.176-21.808-48.064l149.808-81.712zM405.264 147.632l-25.84-5.456-75.424-75.424v-82.752h272v70.512zM48 400c17.68 0 32-14.32 32-32 0 17.68 14.32 32 32 32s32-14.32 32-32c0 17.68 14.32 32 32 32s32-14.32 32-32v160c0 17.68 14.32 32 32 32s32-14.32 32-32v-304h16v32c0 35.344 28.656 64 64 64v-160l-80-80v-96h-256v384c0 17.68 14.32 32 32 32zM1008 73.888c-0.672 0.624-1.248 1.344-1.92 1.952-22.72 20.16-50.56 34.56-81.12 40.96l-146.224 30.832-170.736-93.12v-70.512h400v89.888zM896 16h-208v48h208v-48z" />
<glyph unicode="&#xe913;" glyph-name="bowel-constipation-diarrhea-irritable-sick" d="M528 656v32c27.2 0 51.2-13.6 65.76-34.24 9.12 14.56 14.24 31.84 14.24 50.24 0 52.96-43.040 96-96 96s-96-43.040-96-96 43.040-96 96-96c22.4 0 42.88 7.68 59.2 20.48-7.52 16.32-24.16 27.52-43.2 27.52zM80 288h192v352h-224v-64h32zM848 736h-32v-32h-48v-48h-48v-48h-32v-32h64v48h48v48h48zM960 688v-32h-48v-48h-48v-48h-32v-32h64v48h48v48h48v64zM736 816h48v48h48v64h-32v-32h-48v-48h-48v-48h-32v-32h64zM624 544c0 35.344-28.656 64-64 64h-96c-35.344 0-64-28.656-64-64v-224c0-35.344 28.656-64 64-64h-96v384c0 17.664-14.336 32-32 32s-32-14.336-32-32v-384h-224v-32c0-17.664 14.336-32 32-32h32c0-70.576 57.424-128 128-128v-96h224l-48 128h32c88.368 0 160 71.632 160 160v-288h96v336c0 11.712-3.376 22.56-8.88 32h-231.12v192h32v-160h240v96h-144v80zM272 96c-52.944 0-96 43.056-96 96h64c17.664 0 32-14.336 32-32v-64z" />
<glyph unicode="&#xe914;" glyph-name="dna-genetics-genomic-rna-strand-virus" d="M960 928c-17.664 0-32-14.336-32-32v-15.984h-160v-32h160v-32h-160v-32h160v-32h-160v-32h158.976c-0.752-10.752-1.888-21.424-3.552-32h-171.424v-32h164.88c-2.672-10.816-5.792-21.504-9.408-32h-171.472v-32h158.848c-4.928-10.928-10.448-21.584-16.4-32h-190.448v-32h169.888c-7.936-11.088-16.48-21.776-25.648-32h-192.24v-32h160c0 0 0 0-0.016 0-11.472-10.032-22.176-20.768-32.24-32h-191.744v-32h166.112c-7.392-10.336-14.272-21.008-20.56-32h-177.552v-32h161.152c-4.72-10.448-8.88-21.152-12.624-32h-180.528v-32h171.12c-2.608-10.544-4.848-21.216-6.544-32h-164.576v-32h161.024c-0.608-8.656-1.024-17.344-1.024-26.096v-5.92h-160v-32h160v-32h-160v-32h160v-32h-160v-32h160v-16c0-17.664 14.336-32 32-32s32 14.336 32 32v149.92c0 108.080 46.656 210.912 128 282.080s128 174 128 282.080v181.92c0 17.664-14.336 32-32 32zM320 928c-17.664 0-32-14.336-32-32v-47.984h-192v47.984c0 17.664-14.336 32-32 32s-32-14.336-32-32v-181.92c0-100.24 40.192-195.936 110.928-266.080-70.736-70.128-110.928-165.824-110.928-266.080v-181.92c0-17.664 14.336-32 32-32s32 14.336 32 32v48.016h192v-48.016c0-17.664 14.336-32 32-32s32 14.336 32 32v181.92c0 100.256-40.192 195.936-110.928 266.080 70.736 70.144 110.928 165.84 110.928 266.080v181.92c0 17.664-14.336 32-32 32zM116.528 272.016c3.744 10.848 7.904 21.552 12.624 32h125.68c4.72-10.448 8.88-21.152 12.624-32h-150.928zM276.88 240.016c2.608-10.544 4.848-21.216 6.544-32h-182.848c1.696 10.784 3.936 21.456 6.544 32h169.76zM145.568 336.016c13.104 22.896 28.64 44.448 46.432 64.272 17.808-19.824 33.344-41.376 46.432-64.272h-92.864zM192 495.728c-17.808 19.824-33.344 41.392-46.448 64.288h92.896c-13.104-22.896-28.64-44.448-46.448-64.288zM129.152 592.016c-4.72 10.448-8.88 21.152-12.624 32h150.944c-3.744-10.848-7.904-21.552-12.624-32h-125.696zM107.12 656.016c-2.608 10.544-4.848 21.216-6.544 32h182.848c-1.696-10.784-3.936-21.456-6.544-32h-169.76zM288 80.016h-192v32h192v-32zM288 144.016h-192v5.92c0 8.736 0.416 17.424 1.024 26.080h189.952c0.608-8.656 1.024-17.344 1.024-26.096v-5.904zM288 746.080c0-8.736-0.416-17.424-1.024-26.080h-189.952c-0.608 8.672-1.024 17.36-1.024 26.080v5.92h192v-5.92zM288 784.016h-192v32h192v-32z" />
<glyph unicode="&#xe915;" glyph-name="clean-hands-hygiene-soap-washing" d="M176 688c0-26.51-21.49-48-48-48s-48 21.49-48 48c0 26.51 21.49 48 48 48s48-21.49 48-48zM112 832c0-17.673-14.327-32-32-32s-32 14.327-32 32c0 17.673 14.327 32 32 32s32-14.327 32-32zM272 768c26.512 0 48 12.656 48 48s-48 96-48 96-48-60.656-48-96 21.488-48 48-48zM416 704c26.512 0 48 12.656 48 48s-48 96-48 96-48-60.656-48-96 21.488-48 48-48zM720 656v16l-86.080 86.080c-6.4 6.4-15.040 9.92-24 9.92-9.28 0-17.92-3.84-24-9.92s-9.92-14.72-9.92-24c0-8.96 3.52-17.6 9.92-24l38.080-38.080v-16h-224c-17.6 0-32-14.4-32-32 0-8.8 3.52-16.8 9.44-22.56 5.76-5.92 13.76-9.44 22.56-9.44h-32c-17.6 0-32-14.4-32-32 0-8.8 3.52-16.8 9.44-22.56 5.76-5.92 13.76-9.44 22.56-9.44h32c-11.76 0-21.968-6.496-27.536-16h46.272c-12.064 12.368-18.736 28.704-18.736 46.080 0 17.392 7.040 34.384 19.312 46.64 7.44 7.44 16.72 12.672 26.688 15.84v0c3.072 0.976 6.208 1.776 9.376 2.384 3.488 0.576 7.008 1.056 10.56 1.056 17.632 0 34.192-6.864 46.624-19.296l92.704-92.704h386.736v144h-272zM576 496l-86.080 86.080c-6.4 6.4-15.040 9.92-24 9.92-9.28 0-17.92-3.84-24-9.92s-9.92-14.72-9.92-24c0-8.96 3.52-17.6 9.92-24l38.080-38.080v-16h-224c-17.6 0-32-14.4-32-32 0-8.8 3.52-16.8 9.44-22.56 5.76-5.92 13.76-9.44 22.56-9.44 0 8.832 7.168 16 16 16h176c8.832 0 16-7.168 16-16s-7.168-16-16-16h-176c-8.832 0-16 7.168-16 16h-32c-17.6 0-32-14.4-32-32 0-8.8 3.52-16.8 9.44-22.56 5.76-5.92 13.76-9.44 22.56-9.44h32c0 8.832 7.168 16 16 16h176c8.832 0 16-7.168 16-16s-7.168-16-16-16h-176c-8.832 0-16 7.168-16 16-17.6 0-32-14.4-32-32 0-8.8 3.52-16.8 9.44-22.56 5.76-5.92 13.76-9.44 22.56-9.44h32c0 8.832 7.168 16 16 16h144c8.832 0 16-7.168 16-16s-7.168-16-16-16h-144c-8.832 0-16 7.168-16 16-17.6 0-32-14.4-32-32 0-8.8 3.52-16.8 9.44-22.56 5.76-5.92 13.76-9.44 22.56-9.44h704v256h-416v16zM242.496 211.12c-11.696 11.392-18.496 27.552-18.496 44.88 0 2.8 0.176 5.552 0.528 8.256-5.104 2.912-9.824 6.544-14.032 10.88-11.696 11.376-18.496 27.536-18.496 44.864 0 2.8 0.176 5.552 0.528 8.256-5.104 2.912-9.824 6.544-14.032 10.88-11.696 11.376-18.496 27.536-18.496 44.864 0 23.856 13.12 44.704 32.528 55.712-0.336 2.72-0.528 5.488-0.528 8.288 0 35.296 28.704 64 64 64h70.224c-1.216 1.072-2.576 1.952-3.728 3.12-11.696 11.392-18.496 27.552-18.496 44.88 0 23.856 13.12 44.704 32.528 55.712-0.336 2.72-0.528 5.488-0.528 8.288 0 10.192 2.608 19.696 6.864 28.272-37.264-10.16-65.632-41.856-70.176-81.152-10.336 3.168-21.312 4.88-32.688 4.88-61.856 0-112-50.144-112-112 0-23.904 7.552-46.032 20.32-64.224-1.44 0.064-2.864 0.224-4.32 0.224-53.008 0-96-42.992-96-96s42.992-96 96-96c11.44 0 22.368 2.112 32.56 5.776 5.104-48.208 45.872-85.776 95.44-85.776 24.624 0 47.008 9.344 64 24.592v-72.592c0-17.664 14.336-32 32-32s32 14.336 32 32v48c0 17.664 14.336 32 32 32s32-14.336 32-32v-112c0-17.664 14.336-32 32-32s32 14.336 32 32v144.352c13.408-10.112 29.904-16.352 48-16.352 32.784 0 60.896 19.76 73.248 48h-361.248c-17.344 0-33.504 6.8-45.504 19.12z" />
<glyph unicode="&#xe916;" glyph-name="covid-19-fever-high-sick-sweat-temperature" d="M592 400c-44.192 0-80-35.824-80-80h160c0 44.176-35.808 80-80 80zM439.152 606.32l-14.304-28.64 67.376-33.68-67.376-33.68 14.304-28.64 124.624 62.32zM759.152 510.32l-67.376 33.68 67.376 33.68-14.304 28.64-124.624-62.32 124.624-62.32zM72 655.968c0 16.848-6.176 26.112-10.688 32.896-3.536 5.296-5.312 7.968-5.312 15.136h-32c0-16.848 6.176-26.112 10.688-32.896 3.536-5.296 5.312-7.968 5.312-15.136 0-7.184-1.776-9.84-5.328-15.168-4.496-6.768-10.672-16.032-10.672-32.88 0-16.832 6.176-26.096 10.688-32.864 3.536-5.296 5.312-7.952 5.312-15.104 0-7.136-1.776-9.792-5.312-15.088-4.512-6.768-10.688-16.016-10.688-32.864h32c0 7.152 1.776 9.808 5.312 15.104 4.512 6.768 10.688 16.016 10.688 32.848s-6.176 26.096-10.688 32.864c-3.536 5.296-5.312 7.952-5.312 15.104 0 7.168 1.776 9.84 5.312 15.152 4.512 6.768 10.688 16.032 10.688 32.896zM168 655.968c0 16.848-6.176 26.112-10.688 32.896-3.536 5.296-5.312 7.968-5.312 15.136h-32c0-16.848 6.176-26.112 10.688-32.896 3.536-5.296 5.312-7.968 5.312-15.136 0-7.184-1.776-9.84-5.328-15.168-4.496-6.768-10.672-16.032-10.672-32.88 0-16.832 6.176-26.096 10.688-32.864 3.536-5.296 5.312-7.952 5.312-15.104 0-7.136-1.776-9.792-5.312-15.088-4.512-6.768-10.688-16.016-10.688-32.864h32c0 7.152 1.776 9.808 5.312 15.104 4.512 6.768 10.688 16.016 10.688 32.848s-6.176 26.096-10.688 32.864c-3.536 5.296-5.312 7.952-5.312 15.104 0 7.168 1.776 9.84 5.312 15.152 4.512 6.768 10.688 16.032 10.688 32.896zM216 512h32c0 7.152 1.776 9.808 5.312 15.104 4.512 6.768 10.688 16.016 10.688 32.848s-6.176 26.096-10.688 32.864c-3.536 5.296-5.312 7.952-5.312 15.104 0 7.168 1.776 9.84 5.312 15.152 4.512 6.768 10.688 16.032 10.688 32.896 0 16.848-6.176 26.112-10.688 32.896-3.536 5.296-5.312 7.968-5.312 15.136h-32c0-16.848 6.176-26.112 10.688-32.896 3.536-5.312 5.312-7.984 5.312-15.136 0-7.184-1.776-9.84-5.328-15.168-4.512-6.768-10.672-16.032-10.672-32.88 0-16.832 6.176-26.096 10.688-32.864 3.536-5.296 5.312-7.952 5.312-15.104 0-7.136-1.776-9.792-5.312-15.088-4.512-6.768-10.688-16.016-10.688-32.864zM896 144h-160v82.736c91.184 49.264 154.112 143.824 159.28 253.264h16.72c35.344 0 64 28.656 64 64s-28.656 64-64 64h-32v16c0 18.32-2 36.176-5.664 53.408 11.216-4 24.048-5.408 37.664-5.408 44.176 0 80 14.64 80 85.328s-80 170.672-80 170.672-69.872-87.36-78.992-156.496c-46.352 65.568-122.592 108.496-209.008 108.496h-256c-20.512 0-37.904 12.944-44.768 31.056-51.392-6.848-89.968-54.224-82.24-109.008 4.832-34.4 28.768-61.536 59.728-74.176-8.752-31.888-12.72-74.288-12.72-105.504v-142.368h0.72c5.152-109.456 68.096-204.016 159.28-253.264v-82.736h-160c-53.008 0-96-42.992-96-96v-80h800v80c0 53.008-42.992 96-96 96zM912.048 872.944c22.384-34.288 47.952-81.776 47.952-115.616 0-49.744-18.128-53.328-48-53.328s-48 3.584-48 53.328c0 33.568 25.84 81.44 48.048 115.616zM320 494.368v128c0 28.592 3.776 69.44 11.952 98.288 2.48-0.192 4.912-0.656 7.424-0.656h444.624v-32c0-47.536 34.624-86.928 80-94.56v-99.072c0-149.984-122.016-272-272-272s-272 122.016-272 272zM704 144l-112-80-112 80v68.016c34.704-13.824 72.432-21.648 112-21.648s77.296 7.824 112 21.648v-68.016z" />
<glyph unicode="&#xe917;" glyph-name="head-headache-migraine-pain-severe-shock" d="M880 144h-224v82.736c91.184 49.264 154.112 143.824 159.28 253.264h16.72c35.344 0 64 28.656 64 64s-28.656 64-64 64h-32v16c0 141.376-114.608 256-256 256h-256c-20.512 0-37.904 12.944-44.768 31.056-51.392-6.848-89.968-54.224-82.24-109.008 4.832-34.4 28.768-61.536 59.728-74.176-8.752-31.888-12.72-74.288-12.72-105.504v-14.368h-16c-35.344 0-64-28.656-64-64s28.656-64 64-64h16.72c5.152-109.456 68.096-204.016 159.28-253.264v-82.736h-224c-53.008 0-96-42.992-96-96v-80h928v80c0 53.008-42.992 96-96 96zM240 494.368v128c0 28.592 3.776 69.44 11.952 98.288 2.48-0.192 4.912-0.656 7.424-0.656h444.624v-32c0-47.536 34.624-86.928 80-94.56v-99.072c0-149.984-122.016-272-272-272s-272 122.016-272 272zM400 144v68.016c34.704-13.824 72.432-21.648 112-21.648s77.296 7.824 112 21.648v-68.016l-112-80-112 80zM512 400c-44.192 0-80-35.824-80-80h160c0 44.176-35.808 80-80 80zM816 816v-160l128 176h-48l32 96h-176l16-112zM359.152 606.32l-14.304-28.64 67.376-33.68-67.376-33.68 14.304-28.64 124.624 62.32zM679.152 510.32l-67.376 33.68 67.376 33.68-14.304 28.64-124.624-62.32 124.624-62.32z" />
<glyph unicode="&#xe918;" glyph-name="cook-food-heat-hot-pot-well" d="M864 784h-176v80c0 35.344-28.656 64-64 64h-224c-35.344 0-64-28.656-64-64v-80h-176c-35.344 0-64-28.656-64-64v-32h832v32c0 35.344-28.656 64-64 64zM400 784v80h224v-80h-224zM952 656h-880c-22.096 0-40-17.904-40-40s17.904-40 40-40h24v-544c0-35.344 28.656-64 64-64h96c-44.176 0-80 18.144-80 80s80 144 80 144 80-82.144 80-144c0-61.856-35.824-80-80-80h256c-44.176 0-80 18.144-80 80s80 144 80 144 80-82.144 80-144c0-61.856-35.824-80-80-80h256c-44.176 0-80 18.144-80 80s80 144 80 144 80-82.144 80-144c0-61.856-35.824-80-80-80h96c35.344 0 64 28.656 64 64v544h24c22.096 0 40 17.904 40 40s-17.904 40-40 40zM752 576h-32v32h32v-32zM816 576h-32v32h32v-32zM880 576h-32v32h32v-32zM256 96c0 0-48-46.944-48-82.288s21.488-45.712 48-45.712c26.512 0 48 10.368 48 45.712s-48 82.288-48 82.288zM512 96c0 0-48-46.944-48-82.288s21.488-45.712 48-45.712c26.512 0 48 10.368 48 45.712s-48 82.288-48 82.288zM768 96c0 0-48-46.944-48-82.288s21.488-45.712 48-45.712 48 10.368 48 45.712c0 35.344-48 82.288-48 82.288z" />
<glyph unicode="&#xe919;" glyph-name="chill-cold-covid-19-fever-flu-shivering-sick" d="M240 624h-32c0 62.512 33.696 120.896 87.968 152.368l16.064-27.68c-44.432-25.776-72.032-73.552-72.032-124.688zM730.096 399.2l-16.464 27.44c34.032 20.432 54.368 56.336 54.368 96.032h32c0-51.056-26.144-97.2-69.904-123.472zM950.112 784l11.568-23.152 28.64 14.304-12.432 24.848 12.432 24.848-28.64 14.304-11.568-23.152h-63.488l44.896 44.88 24.56-8.192 10.128 30.368-26.368 8.784-8.8 26.368-30.336-10.128 8.192-24.56-44.896-44.896v63.488l23.152 11.568-14.304 28.64-24.848-12.432-24.848 12.432-14.304-28.64 23.152-11.568v-63.488l-44.896 44.88 8.192 24.576-30.336 10.128-8.8-26.368-26.368-8.784 10.128-30.368 24.56 8.192 44.88-44.88h-63.472l-11.568 23.152-28.64-14.304 12.432-24.848-12.432-24.848 28.64-14.304 11.568 23.152h63.472l-44.896-44.896-24.544 8.192-10.128-30.352 26.368-8.784 8.8-26.368 30.336 10.128-8.192 24.56 44.896 44.896v-63.488l-23.152-11.568 14.304-28.64 24.848 12.432 24.848-12.432 14.304 28.64-23.152 11.568v63.488l44.896-44.896-8.192-24.56 30.336-10.128 8.8 26.368 26.368 8.784-10.128 30.352-24.56-8.192-44.896 44.896zM278.112 208l11.568-23.152 28.64 14.304-12.432 24.848 12.432 24.848-28.64 14.304-11.568-23.152h-63.488l44.896 44.88 24.56-8.192 10.128 30.368-26.368 8.784-8.8 26.368-30.336-10.128 8.192-24.56-44.896-44.896v63.488l23.152 11.568-14.304 28.64-24.848-12.432-24.848 12.432-14.304-28.64 23.152-11.568v-63.488l-44.896 44.88 8.192 24.576-30.336 10.128-8.8-26.368-26.368-8.784 10.128-30.368 24.56 8.192 44.88-44.88h-63.472l-11.568 23.152-28.64-14.304 12.432-24.848-12.432-24.848 28.64-14.304 11.568 23.152h63.472l-44.896-44.896-24.544 8.192-10.128-30.352 26.368-8.784 8.8-26.368 30.336 10.128-8.192 24.56 44.896 44.896v-63.488l-23.152-11.568 14.304-28.64 24.848 12.432 24.848-12.432 14.304 28.64-23.152 11.568v63.488l44.896-44.896-8.192-24.56 30.336-10.128 8.8 26.368 26.368 8.784-10.128 30.352-24.56-8.192-44.896 44.896zM763.312 148.688l-22.624 22.624 20.688 20.688-32 32 32 32-32 32 32 32-20.688 20.688 22.624 22.624 43.312-43.312-32-32 32-32-32-32 32-32zM203.312 420.688l-22.624 22.624 20.688 20.688-32 32 32 32-32 32 43.312 43.312 22.624-22.624-20.688-20.688 32-32-32-32 32-32zM624 720h-8.288c0 0 0 0 0 0v0c0 0 0 0 0 0-25.84-38.592-69.792-64-119.712-64-49.76 0-93.616 25.248-119.488 63.616-49.504-3.824-88.512-45.136-88.512-95.616v-160c0-35.344 28.656-64 64-64h128v96h13.728l-29.728 16 16 32 145.872-77.808c4.208-2.24 8.512-3.824 12.832-5.056 39.488-11.264 81.296 17.984 81.296 61.536v101.328c0 53.008-42.992 96-96 96zM416 496h-32v112h32v-112zM624 576l-32 16v32h32v-48zM608 800c0-61.856-50.144-112-112-112s-112 50.144-112 112c0 61.856 50.144 112 112 112s112-50.144 112-112zM656 240l-12.48 175.36-1.616 0.864-129.904 69.936v-118.16h-125.088l13.088-144-48-240h128l48 208v160l16-144 64-224h112z" />
<glyph unicode="&#xe91a;" glyph-name="coronavirus-covid-19-flu-influenza-mers-sars-virus" d="M739.2 534.4c-14.4 20.8-38.4 12.8-52.8 9.6-3.2-1.6-6.4-1.6-9.6-3.2 0 3.2 1.6 6.4 3.2 9.6 4.8 16 12.8 38.4-8 52.8-19.2 12.8-38.4-1.6-51.2-11.2-1.6-1.6-4.8-3.2-6.4-4.8 0 3.2 0 6.4 0 8 0 14.4-1.6 40-25.6 46.4-22.4 4.8-35.2-16-44.8-28.8-1.6-1.6-3.2-4.8-4.8-6.4-1.6 3.2-1.6 4.8-3.2 8-6.4 14.4-14.4 36.8-40 35.2-24-3.2-28.8-27.2-32-41.6 0-1.6-1.6-4.8-1.6-8-1.6 1.6-3.2 4.8-4.8 6.4-11.2 12.8-27.2 30.4-49.6 20.8-20.8-11.2-17.6-35.2-16-51.2 0-3.2 1.6-6.4 1.6-9.6-3.2 1.6-4.8 3.2-8 3.2-12.8 6.4-36.8 19.2-54.4 1.6-16-17.6-4.8-38.4 3.2-52.8 1.6-3.2 3.2-8 4.8-11.2-3.2 0-8 0-11.2 0-16 1.6-41.6 3.2-51.2-20.8-3.2-8 0-17.6 8-20.8s17.6 0 20.8 8c1.6 3.2 12.8 1.6 19.2 1.6 14.4-1.6 32-1.6 41.6 12.8s1.6 32-4.8 44.8c-1.6 4.8-6.4 12.8-6.4 16 3.2 0 11.2-4.8 16-6.4 12.8-6.4 28.8-14.4 43.2-4.8s12.8 28.8 9.6 43.2c0 4.8-1.6 12.8-1.6 16 3.2-3.2 8-8 11.2-11.2 9.6-11.2 22.4-24 38.4-19.2 17.6 4.8 20.8 22.4 24 36.8 1.6 4.8 3.2 11.2 3.2 14.4 1.6-3.2 4.8-9.6 6.4-14.4 4.8-14.4 12.8-30.4 28.8-32 17.6-1.6 27.2 14.4 35.2 25.6 1.6 3.2 6.4 9.6 8 12.8 1.6-4.8 1.6-11.2 1.6-16 0-14.4 1.6-33.6 17.6-40 16-8 30.4 3.2 41.6 12.8 3.2 3.2 9.6 8 12.8 9.6 0-4.8-3.2-11.2-4.8-16-4.8-14.4-9.6-32 1.6-43.2 12.8-12.8 30.4-8 43.2-4.8 4.8 1.6 16 4.8 17.6 4.8 0-3.2-6.4-11.2-9.6-16-8-11.2-20.8-27.2-12.8-43.2 3.2-6.4 8-9.6 14.4-9.6 1.6 0 4.8 0 6.4 1.6 8 3.2 11.2 11.2 8 19.2 1.6 3.2 4.8 9.6 8 12.8 14.4 12.8 28.8 32 16 52.8zM910.4 273.6c-17.6 11.2-40 8-54.4-4.8l-44.8 25.6c16 32 27.2 65.6 33.6 102.4l64-6.4 3.2 32-64 6.4c0 6.4 1.6 12.8 1.6 19.2s0 12.8-1.6 19.2l64 6.4-3.2 32-64-6.4c-4.8 36.8-17.6 70.4-33.6 102.4l44.8 25.6c14.4-12.8 36.8-16 54.4-4.8 22.4 12.8 30.4 43.2 17.6 65.6s-43.2 30.4-65.6 17.6c-17.6-11.2-27.2-30.4-22.4-49.6l-44.8-25.6c-19.2 30.4-44.8 57.6-72 80l38.4 52.8-25.6 19.2-38.4-52.8c-11.2 6.4-22.4 12.8-33.6 19.2l25.6 59.2-28.8 12.8-25.6-59.2c-33.6 12.8-68.8 20.8-105.6 22.4v51.2c19.2 6.4 32 24 32 44.8 0 27.2-20.8 48-48 48s-48-20.8-48-48c0-20.8 12.8-38.4 32-44.8v-51.2c-36.8-1.6-72-9.6-105.6-22.4l-25.6 59.2-28.8-12.8 25.6-59.2c-11.2-6.4-22.4-12.8-33.6-19.2l-38.4 52.8-25.6-19.2 38.4-52.8c-28.8-22.4-52.8-49.6-72-80l-46.4 25.6c3.2 19.2-4.8 40-22.4 49.6-24 12.8-54.4 4.8-67.2-17.6s-4.8-52.8 17.6-65.6c17.6-11.2 40-8 54.4 4.8l44.8-25.6c-16-32-27.2-65.6-33.6-102.4l-64 6.4-3.2-32 64-6.4c0-6.4-1.6-12.8-1.6-19.2s0-12.8 1.6-19.2l-64-6.4 3.2-32 64 6.4c4.8-36.8 17.6-70.4 33.6-102.4l-44.8-25.6c-14.4 12.8-36.8 16-54.4 4.8-22.4-12.8-30.4-43.2-17.6-65.6s43.2-30.4 65.6-17.6c17.6 11.2 27.2 30.4 22.4 49.6l44.8 25.6c19.2-30.4 44.8-57.6 72-80l-38.4-52.8 25.6-19.2 38.4 52.8c11.2-6.4 22.4-12.8 33.6-19.2l-25.6-59.2 28.8-12.8 25.6 59.2c33.6-12.8 68.8-20.8 105.6-22.4v-51.2c-19.2-6.4-32-24-32-44.8 0-27.2 20.8-48 48-48s48 20.8 48 48c0 20.8-12.8 38.4-32 44.8v51.2c36.8 1.6 72 9.6 105.6 22.4l25.6-59.2 28.8 12.8-25.6 59.2c11.2 6.4 22.4 12.8 33.6 19.2l38.4-52.8 25.6 19.2-38.4 52.8c28.8 22.4 52.8 49.6 72 80l44.8-25.6c-3.2-19.2 4.8-40 22.4-49.6 22.4-12.8 52.8-4.8 65.6 17.6s8 52.8-14.4 65.6zM704 211.2l-19.2 25.6-25.6-19.2 19.2-25.6c-9.6-6.4-17.6-11.2-27.2-16l-12.8 28.8-30.4-11.2 12.8-28.8c-28.8-11.2-60.8-17.6-92.8-19.2v30.4h-32v-30.4c-32 1.6-64 8-92.8 19.2l12.8 28.8-28.8 12.8-12.8-28.8c-9.6 4.8-19.2 9.6-27.2 16l19.2 25.6-25.6 19.2-20.8-27.2c-24 20.8-46.4 43.2-64 70.4l27.2 16-16 27.2-27.2-16c-14.4 27.2-24 57.6-28.8 89.6l30.4 3.2-3.2 32-28.8-1.6c0 4.8-1.6 11.2-1.6 16s0 11.2 1.6 16l30.4-3.2 3.2 32-30.4 3.2c4.8 32 14.4 62.4 28.8 89.6l27.2-16 16 27.2-27.2 16c17.6 27.2 38.4 51.2 64 70.4l19.2-25.6 25.6 19.2-19.2 25.6c9.6 6.4 17.6 11.2 27.2 16l12.8-28.8 28.8 12.8-12.8 28.8c28.8 11.2 60.8 17.6 92.8 19.2v-30.4h32v30.4c32-1.6 64-8 92.8-19.2l-12.8-28.8 28.8-12.8 12.8 28.8c9.6-4.8 19.2-9.6 27.2-16l-19.2-25.6 25.6-19.2 19.2 25.6c24-20.8 46.4-43.2 64-70.4l-27.2-16 16-27.2 27.2 16c14.4-27.2 24-57.6 28.8-89.6l-30.4-3.2 3.2-32 30.4 3.2c0-4.8 1.6-11.2 1.6-16s0-11.2-1.6-16l-30.4 3.2-3.2-32 30.4-3.2c-4.8-32-14.4-62.4-28.8-89.6l-27.2 16-16-27.2 27.2-16c-17.6-27.2-38.4-51.2-62.4-72z" />
<glyph unicode="&#xe91b;" glyph-name="avoid-contact-covid-19-crowd-no-people" d="M512 944c-273.936 0-496-222.064-496-496s222.064-496 496-496 496 222.064 496 496c0 273.936-222.064 496-496 496zM512 16c-238.592 0-432 193.408-432 432 0 107.776 39.552 206.256 104.832 281.92l609.088-609.088c-75.68-65.264-174.144-104.832-281.92-104.832zM839.168 166.080l-73.92 73.92h66.752v48c0 35.344-28.656 64-64 64h-32c-22.48 0-42.16-11.632-53.584-29.168l-50.656 50.656c5.12 7.6 8.24 16.64 8.24 26.512 0 26.512-21.488 48-48 48-9.872 0-18.928-3.12-26.512-8.24l-8.24 8.24h274.752v48c0 35.344-28.656 64-64 64h-32c-35.344 0-64-28.656-64-64 0 35.344-28.656 64-64 64h-32c-35.344 0-64-28.656-64-64 0 35.344-28.656 64-64 64h-2.752l-1.6 1.6c20.848 5.232 36.352 23.936 36.352 46.4 0 26.512-21.488 48-48 48-22.464 0-41.184-15.504-46.416-36.336l-155.504 155.504c75.664 65.264 174.128 104.832 281.92 104.832 238.592 0 432-193.408 432-432 0-107.776-39.568-206.256-104.832-281.92zM421.488 448l-66.464 66.464c-1.776-5.872-3.024-12-3.024-18.464 0 10.256-2.64 19.824-6.928 28.416l-28.64 28.64c-8.608 4.32-18.176 6.944-28.432 6.944h-32c-35.344 0-64-28.656-64-64v-48h229.488zM233.296 636.192c-5.776-7.936-9.296-17.616-9.296-28.192 0-26.512 21.488-48 48-48 10.576 0 20.256 3.52 28.176 9.312l-66.88 66.88zM320 400c0-26.51-21.49-48-48-48s-48 21.49-48 48c0 26.51 21.49 48 48 48s48-21.49 48-48zM512 240h117.488l-95.728 95.728c-13.248-11.712-21.76-28.64-21.76-47.728 0 35.344-28.656 64-64 64h-32c-35.344 0-64-28.656-64-64 0 35.344-28.656 64-64 64h-32c-35.344 0-64-28.656-64-64v-48h320zM479.040 390.464l-56.592 56.592c-21.936-4.432-38.448-23.808-38.448-47.056 0-26.512 21.488-48 48-48 23.232 0 42.608 16.528 47.040 38.464zM640 608c0-26.51-21.49-48-48-48s-48 21.49-48 48c0 26.51 21.49 48 48 48s48-21.49 48-48zM800 608c0-26.51-21.49-48-48-48s-48 21.49-48 48c0 26.51 21.49 48 48 48s48-21.49 48-48zM800 400c0-26.51-21.49-48-48-48s-48 21.49-48 48c0 26.51 21.49 48 48 48s48-21.49 48-48z" />
<glyph unicode="&#xe91c;" glyph-name="coffin-coronavirus-covid-19-death-infection-skull" d="M854.848 141.872l-28.96 16.72c3.888 10.416 6.112 21.648 6.112 33.408 0 11.776-2.224 23.008-6.112 33.424l28.944 16.72 8-13.872 27.712 16-32 55.44-27.712-16 8-13.856-28.88-16.672c-14.368 17.36-34.768 29.472-57.952 33.376v33.456h16v32h-64v-32h16v-33.456c-23.184-3.904-43.584-16.016-57.968-33.376l-28.88 16.672 8 13.856-27.712 16-32-55.44 27.712-16 8 13.856 28.944-16.72c-3.872-10.4-6.096-21.632-6.096-33.408s2.224-22.992 6.096-33.424l-28.944-16.704-8 13.856-27.712-16 32-55.44 27.712 16-8 13.856 28.88 16.672c14.384-17.36 34.784-29.488 57.968-33.376v-33.44h-16v-32h64v32h-16v33.44c23.184 3.904 43.584 16.016 57.968 33.376l28.88-16.672-8-13.872 27.712-16 32 55.44-27.712 16-8-13.84zM736 128.016c-35.328 0-64 28.656-64 63.984s28.656 64 64 64 64-28.656 64-64c-0.016-35.328-28.672-63.984-64-63.984zM384 800.016c-61.744 0-112-50.256-112-112v-64h224v64c0 61.744-50.256 112-112 112zM368 713.392l-20.688-20.688-22.624 22.624 11.312 11.312v25.376h32v-38.624zM420.688 692.704l-20.688 20.688v38.624h32v-25.376l11.312-11.312-22.624-22.624zM792.128 408.64l55.872 279.36-112 240h-124.688l110.128-235.984-57.616-288.112c-12.432-4.24-24.432-9.392-35.76-15.632l59.936 299.728-112 240h-384l-112-240 144-720h320l16.912 84.528c8.144-10.224 17.216-19.632 27.008-28.272 0 0-0.016 0.016-0.016 0.016l-11.264-56.272h127.36l0.496 2.464c-0.096 0.016-0.176 0.032-0.272 0.048 10.4-1.472 20.96-2.512 31.776-2.512 123.712 0 224 100.288 224 224 0 104.304-71.376 191.696-167.872 216.64zM288 32.016h-32v32h32v-32zM352 32.016h-32v32h32v-32zM416 32.016h-32v32h32v-32zM448 480.016h-128c-35.296 0-64 28.704-64 64h32c0-17.648 14.352-32 32-32h128c17.648 0 32 14.352 32 32h32c0-35.296-28.704-64-64-64zM528 592.016h-32v-32h-32v32h-32v-32h-32v32h-32v-32h-32v32h-32v-32h-32v32h-32v96c0 79.408 64.592 144 144 144s144-64.592 144-144v-96zM736 0c-106.032 0-192 85.968-192 192s85.968 192 192 192c106.032 0 192-85.968 192-192s-85.968-192-192-192z" />
<glyph unicode="&#xe91d;" glyph-name="animal-avoid-bat-dont-eating-no" d="M512 944c-273.936 0-496-222.064-496-496s222.064-496 496-496c273.936 0 496 222.064 496 496s-222.064 496-496 496zM512 16c-238.592 0-432 193.408-432 432 0 107.776 39.552 206.256 104.832 281.92l609.088-609.088c-75.68-65.264-174.144-104.832-281.92-104.832zM839.168 166.080l-157.92 157.92c2.288-1.216 4.528-2.512 6.752-4 0 48 32 96 80 112s112 0 112 0c0 192-112 256-112 256s-2.368-76.256-80-128c-48-32-80-32-80-32v176c-35.344 0-64-28.656-64-64h-64c0 35.344-28.656 64-64 64v-114.752l-185.92 185.92c75.664 65.264 174.128 104.832 281.92 104.832 238.592 0 432-193.408 432-432 0-107.776-39.568-206.256-104.832-281.92zM256 432c48-16 80-64 80-112 48 32 112 0 128-16s48-48 48-112c0 64 32 96 48 112 0.816 0.816 1.84 1.696 2.896 2.592l-346.368 346.368c-32.256-36.864-72.528-105.728-72.528-220.96 0 0 64 16 112 0z" />
<glyph unicode="&#xe91e;" glyph-name="antivirus-capsule-covid-19-medical-pill-virus" d="M576 448c0-35.328-28.656-64-64-64-35.328 0-64 28.656-64 64 0 35.328 28.656 64 64 64s64-28.672 64-64v0zM704.48 912c-72.016 0-141.088-28.608-192-79.536l-181.152-181.152 64-64-22.624-22.624-64 64-181.168-181.152c-50.928-50.928-79.536-119.984-79.536-192 0-149.968 121.568-271.536 271.536-271.536 72.016 0 141.072 28.608 192 79.536l181.152 181.152-64 64 22.624 22.624 64-64 181.168 181.152c50.912 50.928 79.52 119.984 79.52 192 0 149.968-121.568 271.536-271.52 271.536zM546.416 798.528c16.048 16.048 34.272 29.504 54.112 39.968l14.928-28.32c-17.008-8.976-32.624-20.496-46.416-34.288l-51.216-51.216-22.624 22.624 51.216 51.232zM608 448c0-11.776-2.224-22.992-6.096-33.424l28.96-16.72 8 13.856 27.712-16-32-55.44-27.712 16 8 13.856-28.88 16.672c-14.384-17.344-34.784-29.456-57.984-33.36v-33.44h16v-32h-64v32h16v33.44c-23.184 3.904-43.584 16.016-57.968 33.376l-28.88-16.672 8-13.856-27.712-16-32 55.44 27.712 16 8-13.856 28.96 16.72c-3.888 10.416-6.112 21.632-6.112 33.408s2.224 22.992 6.096 33.424l-28.96 16.72-8-13.856-27.712 16 32 55.44 27.712-16-8-13.856 28.88-16.672c14.384 17.36 34.784 29.472 57.968 33.376v33.424h-16v32h64v-32h-16v-33.44c23.184-3.904 43.584-16.016 57.968-33.376l28.88 16.672-8 13.856 27.712 16 32-55.44-27.712-16-8 13.856-28.96-16.72c3.904-10.416 6.128-21.632 6.128-33.408zM704.464 832c-15.152 0-30.208-1.744-44.752-5.216l-7.424 31.12c16.992 4.048 34.544 6.096 52.176 6.096v-32z" />
<glyph unicode="&#xe91f;" glyph-name="cleaning-door-hygiene-knob-object" d="M48 432h128l32.592 32.592c2.8-39.616 16.304-77.36 39.584-109.984l2.8-3.92 26.032 18.624-2.8 3.904c-22.368 31.344-34.208 68.288-34.208 106.784h48v64h-128c-61.856 0-112-50.144-112-112zM336 528h32v-32h-32v32zM400 464h32v-32h-32v32zM400 528h32v-32h-32v32zM400 592h32v-32h-32v32zM976 544h-278.752c-12.352 28.24-40.464 48-73.248 48-44.176 0-80-35.808-80-80s35.824-80 80-80c32.784 0 60.896 19.76 73.248 48h278.752c8.832 0 16 7.152 16 16v32c0 8.848-7.168 16-16 16zM624 400v0 0c-61.76 0-112 50.256-112 112s50.24 112 112 112c37.968 0 71.52-19.024 91.776-48h180.224v288c0 35.344-28.656 64-64 64h-304c-35.344 0-64-28.656-64-64v-832c0-35.344 28.656-64 64-64h304c35.344 0 64 28.656 64 64v416h-180.208c-20.272-28.976-53.824-48-91.792-48zM656 268.448v-60.448c0-17.664-14.336-32-32-32s-32 14.336-32 32v60.448c-9.744 8.8-16 21.392-16 35.552 0 26.512 21.488 48 48 48s48-21.488 48-48c0-14.16-6.256-26.752-16-35.552zM32 80.496l224 32v31.664l-224-32zM32-32h224v112.16l-224-32zM216 248c-25.616 25.616-40 60.336-40 96.56v55.44h-64v-55.44c0-36.224-14.384-70.944-40-96.56s-40-60.336-40-96.56v-6.944l221.664 31.664c-4.976 27.024-17.952 52.128-37.664 71.84z" />
<glyph unicode="&#xe920;" glyph-name="antivirus-clothing-covid-19-dress-mask-protective" d="M224 624l-32 16-32-16-112 16v-80l16-32c0 17.664 21.488 32 48 32s48-14.336 48-32-21.488-32-48-32l80-32 80 32c-26.512 0-48 14.336-48 32s21.488 32 48 32c26.512 0 48-14.336 48-32l16 32v80l-112-16zM144 24c0 48.528 39.488 88 88 88 13.232 0 24 10.768 24 24v136h-96v-136c0-30.928-25.072-56-56-56s-56-25.072-56-56v-40h96v40zM336-16h80v80c-44.112 0-80-35.888-80-80zM288 272v-136c0-30.928-25.072-56-56-56s-56-25.072-56-56v-40h128c0 61.76 50.256 112 112 112v176h-128zM173.584 350.896c-3.712 12.976-6.72 26.352-8.928 39.776l31.6 5.152c1.984-12.192 4.704-24.336 8.080-36.112l-30.752-8.816zM526.080 96.288l-1.216 31.984c10.688 0.4 21.504 1.376 32.16 2.88l4.464-31.68c-11.744-1.664-23.648-2.736-35.408-3.184zM490.56 96.64c-11.792 0.704-23.68 2.032-35.312 3.92l5.12 31.6c10.576-1.712 21.392-2.928 32.128-3.568l-1.936-31.952zM420.512 754.736l-9.12 30.672c11.792 3.504 23.92 6.432 36.064 8.688l5.84-31.472c-11.024-2.048-22.064-4.704-32.784-7.888zM587.264 759.104c-10.912 2.624-22.064 4.688-33.168 6.144l4.192 31.712c12.192-1.6 24.464-3.872 36.448-6.752l-7.472-31.104zM486.72 767.008l-2.496 31.904c12.288 0.96 24.784 1.296 37.072 0.96l-0.848-31.984c-11.312 0.288-22.624 0-33.728-0.88zM288 688h-192c-26.512 0-48 21.488-48 48h288c0-26.512-21.488-48-48-48v0zM880 688h-32v128c0 53.008-42.992 96-96 96s-96-42.992-96-96v-128h-32c-53.008 0-96-42.992-96-96v-208l32-32h32v224h32v-96h112v208h32v-208h112v96h32v-224h32l32 32v208c0 53.008-42.992 96-96 96zM800 736h-96v80c0 26.512 21.488 48 48 48s48-21.488 48-48v-80zM624 448h112v-64h-112v64zM768 448h112v-64h-112v64zM208 895.024v32.976h-32v-32.976c5.264 0.592 10.576 0.976 16 0.976s10.736-0.384 16-0.976zM208 895.024v-15.024h-32v15.024c-66.72-7.376-119.68-60.288-127.056-127.024h286.128c-7.392 66.736-60.352 119.648-127.072 127.024zM736 352h-112v-352l32-16h64l16 8zM768 352v-360l16-8h64l32 16v352z" />
<glyph unicode="&#xe921;" glyph-name="bat-carrier-coronavirus-covid-19-flu-virus" d="M630.848 733.856l-28.944 16.72c3.872 10.416 6.096 21.648 6.096 33.424s-2.224 23.008-6.112 33.424l28.944 16.72 8-13.856 27.712 16-32 55.424-27.712-16 8-13.856-28.88-16.672c-14.368 17.36-34.768 29.472-57.952 33.376v33.44h16v32h-64v-32h16v-33.44c-23.184-3.904-43.584-16.016-57.968-33.376l-28.88 16.672 8 13.856-27.712 16-32-55.424 27.712-16 8 13.856 28.944-16.72c-3.872-10.416-6.096-21.648-6.096-33.424s2.224-23.008 6.112-33.424l-28.944-16.72-8 13.856-27.712-16 32-55.424 27.712 16-8 13.856 28.88 16.672c14.384-17.36 34.784-29.472 57.968-33.376v-33.44h-16v-32h64v32h-16v33.44c23.184 3.904 43.584 16.016 57.968 33.376l28.88-16.672-8-13.856 27.712-16 32 55.424-27.712 16-8.016-13.856zM512 720c-35.344 0-64 28.656-64 64s28.656 64 64 64 64-28.656 64-64-28.656-64-64-64zM480 400v0c0 35.344-28.656 64-64 64v-176c0 0-80-16-160 32s-96 128-96 128-112-64-112-256c0 0 80 16 128-16 42.096-28.064 64-80 64-128 32 48 64 64 128 64 96 0 144-80 144-144 0 64 48 144 144 144 64 0 96-16 128-64 0 48 21.904 99.936 64 128 48 32 128 16 128 16 0 192-112 256-112 256s-16-80-96-128-160-32-160-32v176c-35.344 0-64-28.656-64-64h-64zM640 800h32v-32h-32v32zM704 800h32v-32h-32v32zM768 800h32v-32h-32v32zM768 736h32v-32h-32v32zM768 672h32v-32h-32v32zM768 608h32v-32h-32v32zM768 544h32v-32h-32v32zM768 480h32v-32h-32v32zM768 416h32v-32h-32v32zM352 800h32v-32h-32v32zM288 800h32v-32h-32v32zM224 800h32v-32h-32v32zM224 736h32v-32h-32v32zM224 672h32v-32h-32v32zM224 608h32v-32h-32v32zM224 544h32v-32h-32v32zM224 480h32v-32h-32v32zM224 416h32v-32h-32v32z" />
<glyph unicode="&#xe922;" glyph-name="connection-global-route-spread-virus" d="M322.432 296.48c1.088 1.728 10.224 16.096 26.336 36.336l-76.768 19.184-48 64v32h48l32 48 26.144 65.36c-32.48-8.080-51.408-15.888-51.856-16.064l-12.592 29.408c1.968 0.848 22.736 9.472 57.664 18.144l-35.36 47.152-32 96-80-96h-112l-16-32v-64h64l64-208 80-80v-176l48 16 96 224-16.688 4.176c-21.472-25.392-33.44-44.176-33.744-44.656l-27.136 16.96zM976 576v48l-160 80h-48l-65.072-35.488c57.072-58.192 84.88-131.984 93.456-158.352 13.936-2.656 39.984-8.944 67.616-21.968v55.808l112 32zM780.080 480.48c-0.848 0.208-90.176 21.136-230.464-31.472-42.032-15.76-78.672-40.768-108.848-66.768l71.232-14.24v-64l32-48h32l32 96v64h48l32-48 48 48 16-32v-48l128-32-48 64-16 48 40.224 40.224c-37.136 18.928-73.552 23.824-74.208 23.904l-1.936 0.352zM749.44 541.712c-15.008 32.88-39.68 75.92-76 110.704l-81.44-44.416-48 32h-48v-29.072c15.984-0.416 32.448-1.296 49.6-3.008 95.52-9.552 163.168-40.96 203.84-66.208zM416 512l64-32-80-48 17.952-26.928c32.896 28.544 73.36 56.256 120.432 73.904 81.408 30.512 146.56 37.824 189.888 37.936-37.968 22.736-100.080 50.576-185.856 59.152-19.040 1.904-37.392 2.864-54.96 3.104l-23.456-35.168-48-32zM883.488 217.968c0.208 0.272 6.736 8.624 14.992 22.032h-50.48l-48-32v-48l64 16 80-32v48l-19.456 29.184c-8.432-13.44-15.12-22.032-16.032-23.168l-25.024 19.952zM387.136 720.32l-6.288 31.376c3.024 0.608 36.608 7.040 83.136 6.752v41.552h-144v-80l32-16 48-80 64 96v6.16c-44.272 0.336-76.144-5.712-76.848-5.84zM856.224 456.224c29.744-15.152 59.936-39.28 72.592-77.28 16.8-50.416-11.408-108.176-30.352-138.944h13.536l12.544-18.816c21.92 34.912 56.048 103.632 34.64 167.872-17.040 51.136-57.584 81.408-95.184 99.12v-24.176l-7.776-7.776zM665.296 701.024c-64.624 46.176-143.104 57.056-201.296 57.408v-32.272c53.504-0.384 125.184-10.112 182.704-51.184 9.632-6.88 18.384-14.576 26.736-22.56l29.504 16.096c-11.392 11.6-23.84 22.656-37.648 32.512zM417.952 405.072c-29.584-25.664-52.976-51.936-69.184-72.272l34.544-8.64c14.784 17.488 34.176 38.032 57.456 58.080l-8.768 1.76-14.048 21.072zM330.144 561.36c36.896 9.168 91.344 18.688 157.312 17.824l8.544 12.816v18.928c-72.544 1.904-132.192-8.048-172.64-18.080l12.64-16.848-5.856-14.64z" />
</font>
</defs>
</svg>
